Classic Albums Machine Head

Los 10 Posts Más Recientes

Fecha/Hora del TemaAutor del TemaRespuestas/VisitasPostersAutor del PostFecha/Hora del PostForoTema/Link Post
22/05/2019 at 22:48luisjulian256 / 1253F.G. Victor25/05/2019 at 04:33Costa Rica - Panamá - NicaraguaTODOS CALLADOS
16/04/2019 at 18:34ijnajera13 / 7897luzipher25/05/2019 at 04:02Docsis 3.0FIRMWARE TG862
25/05/2019 at 03:58gnrx0 / 01gnrx25/05/2019 at 03:58Presentaciones Noticias de última hora, otro miembro registrado, n00bmaster69 !
16/04/2019 at 18:34ijnajera13 / 7897niños6925/05/2019 at 03:50Docsis 3.0FIRMWARE TG862
09/05/2019 at 00:17tv201736 / 7189BDLarocca25/05/2019 at 03:50IPTV CANALES ESPAÑA & LATINO + EUROPE + AND ALL WORLD IPTV + VOD + SPORT + G...
30/09/2015 at 01:10bajogratis1377 / 235582260BDLarocca25/05/2019 at 03:19IPTV Redireccion de enlaces .M3u8 para reproductores.
25/05/2019 at 02:36gnrx0 / 11gnrx25/05/2019 at 02:36Presentaciones schedow se ha unido a ForoCable!
25/05/2019 at 02:02gnrx0 / 41gnrx25/05/2019 at 02:02Presentaciones Tenemos un nuevo miembro - nhaliasos
25/05/2019 at 01:07gnrx0 / 41gnrx25/05/2019 at 01:07Presentaciones Gracias serial_influx por convertirte en un miembro!
25/05/2019 at 01:06gnrx0 / 21gnrx25/05/2019 at 01:06Presentaciones Nuevo usuario registrado! ramirom
Thanks Thanks:  0
Likes Likes:  0
Dislikes Dislikes:  0
Resultados 1 al 1 de 1
  1. #1
    Avatar de Bo0mB0omh
    Cablero Diamante
    Fecha de Ingreso
    31-01-2019
    Mensajes
    5,488
    Gracias (Dados)
    0
    Gracias (Recibidos)
    15
    Me Gusta (Dados)
    0
    Me Gusta (Recibidos)
    2
    Me Disgusta (Dados)
    0
    Me Disgusta (Recibidos)
    0
    Descargas
    0
    Uploads
    0
    Mencionado
    0 Post(s)
    Poder de reputación
    58

    Predeterminado Classic Albums Machine Head



    Classic Albums Machine Head
    WEBRip | English | MP4 | 1920 x 1080 | AVC ~1500 kbps | 25 fps
    AAC 128 Kbps 48.0 KHz | 2 channels | 02:13:57 | 1.53 GB
    Genre: eLearning Video / Guitar lesson

    Released in March 1972, Deep Purple's Machine Head is one of the most influential rock albums of all time and often cited as one of the first genuine heavy metal records.Commercially, it is the band's most successful album, topping the charts in several countries following its release.
    Machine Head reached number 1 in the United Kingdom and stayed in the top 40 for 20 weeks, and in the United States, it remained on the Billboard 200 for an incredible 118 weeks.

    Learn to play the following:

    * Highway Star
    * Maybe I'm a Leo
    * Pictures Of Home
    * Never Before
    * Smoke On The Water
    * Lazy
    * Space Truckin'

    In this course, LickLibrary veteran, Danny Gill walks you through the many highlights of each song from the rock giants one phrase at a time, including Ritchie Blackmore's legendary guitar riffs and solos from the tracks; "Highway Star" and "Pictures Of Home", to the iconic "Smoke on the Water".

    General
    Complete name : 01_Rhythm Parts.mp4
    Format : MPEG-4
    Codec ID : M4V (isom/avc1/iso6/M4A /M4V /mp42)
    File size : 123 MiB
    Duration : 10 min 32 s
    Overall bit rate mode : Variable
    Overall bit rate : 1 632 kb/s
    Encoded date : UTC 2018-10-30 10:55:40
    Tagged date : UTC 2018-10-30 10:55:40

    Video
    ID : 1
    Format : AVC
    Format/Info : Advanced Video Codec
    Format profile : [email protected]
    Format settings : CABAC / 4 Ref Frames
    Format settings, CABAC : Yes
    Format settings, RefFrames : 4 frames
    Codec ID : avc1
    Codec ID/Info : Advanced Video Coding
    Duration : 10 min 32 s
    Bit rate : 1 500 kb/s
    Maximum bit rate : 3 064 kb/s
    Width : 1 920 pixels
    Height : 1 080 pixels
    Display aspect ratio : 16:9
    Frame rate mode : Constant
    Frame rate : 25.000 FPS
    Color space : YUV
    Chroma subsampling : 4:2:0
    Bit depth : 8 bits
    Scan type : Progressive
    Bits/(Pixel*Frame) : 0.029
    Stream size : 113 MiB (92%)
    Writing library : x264 core 148 r2744kMod b97ae06
    Encoding settings : cabac=1 / ref=4 / deblock=1:0:0 / analyse=0x3:0x113 / me=hex / subme=8 / psy=1 / fade_compensate=0.00 / psy_rd=1.00:0.00 / mixed_ref=1 / me_range=16 / chroma_me=1 / trellis=2 / 8x8dct=1 / cqm=0 / deadzone=21,11 / fast_pskip=1 / chroma_qp_offset=-2 / threads=12 / lookahead_threads=2 / sliced_threads=0 / nr=0 / decimate=1 / interlaced=0 / bluray_compat=0 / constrained_intra=0 / bframes=3 / b_pyramid=2 / b_adapt=1 / b_bias=0 / direct=3 / weightb=1 / open_gop=0 / weightp=2 / keyint=250 / keyint_min=25 / scenecut=40 / intra_refresh=0 / rc_lookahead=50 / rc=2pass / mbtree=1 / bitrate=1500 / ratetol=1.0 / qcomp=0.60 / qpmin=0 / qpmax=69 / qpstep=4 / cplxblur=20.0 / qblur=0.5 / ip_ratio=1.40 / aq=1:1.00
    Encoded date : UTC 2018-10-30 10:55:40
    Tagged date : UTC 2018-10-30 10:55:41

    Audio
    ID : 2
    Format : AAC
    Format/Info : Advanced Audio Codec
    Format profile : LC
    Codec ID : mp4a-40-2
    Duration : 10 min 32 s
    Bit rate mode : Variable
    Bit rate : 128 kb/s
    Maximum bit rate : 145 kb/s
    Channel(s) : 2 channels
    Channel positions : Front: L R
    Sampling rate : 48.0 kHz
    Frame rate : 46.875 FPS (1024 SPF)
    Compression mode : Lossy
    Stream size : 9.65 MiB (8%)
    Encoded date : UTC 2018-10-30 10:49:31
    Tagged date : UTC 2018-10-30 10:55:41

    Screenshots








    DOWNLOAD







  2. # ADS
    Anuncio
    Fecha de Ingreso
    Siempre
    Mensajes
    Varios


     

Etiquetas para este tema

Permisos de publicación

  • No puedes crear nuevos temas
  • No puedes responder temas
  • No puedes subir archivos adjuntos
  • No puedes editar tus mensajes
  •