PELIGRO INMINENTE





Título original: Clear and Present Danger
País: Estados Unidos
Año: 1994
Director: Phillip Noyce
Actores: Harrison Ford, Willem Dafoe, Anne Archer, Joaquim de Almeida, Henry Czerny,
Harris Yulin, Jorge Luke, Donald Moffat, Miguel Sandoval, Benjamin Bratt,
Raymond Cruz, Dean Jones, Thora Birch, Ann Magnuson, Hope Lange,
Tom Tammi, Tim Grimm, Belita Moreno, James Earl Jones.
Género: Acción. Thriller | Secuela



Cuando el Almirante James Greer cae gravemente enfermo, Ryan es nombrado
subdirector de la CIA. Su primera misión: investigar el asesinato de uno
de los amigos personales del Presidente, un importante hombre de negocios
vinculado al tráfico de drogas colombiano. Pero sin que Ryan lo sepa, la
CIA ha enviado una fuerza paramilitar, dirigida por el temible Clark, contra
el cártel colombiano. Atrapado entre dos fuegos, Ryan decide arriesgar su
carrera y su vida por la única causa en la que aún cree: la verdad.



PREMIOS
1994: 2 nominaciones al Oscar: Mejor sonido, efectos de sonido













MEDIAINFO
General
Unique ID : 221849182256572903586787588486256105087 (0xA6E6992BCCA440BA94EEC11EDDC3967F)
Complete name : G:\Peligro Inminente [BDremux 1080p]\p.Peligro Inminente (1994)[BDRemux 1080p].yus\Peligro Inminente (1994)[BDRemux 1080p].mkv
Format : Matroska
Format version : Version 4
File size : 36.8 GiB
Duration : 2 h 21 min
Overall bit rate mode : Variable
Overall bit rate : 37.3 Mb/s
Encoded date : UTC 2020-03-25 02:36:20
Writing application : mkvmerge v44.0.0 ('Domino') 64-bit
Writing library : libebml v1.3.10 + libmatroska v1.5.2

Video
ID : 1
Format : AVC
Format/Info : Advanced Video Codec
Format profile : [email protected]
Format settings : CABAC / 2 Ref Frames
Format settings, CABAC : Yes
Format settings, Reference : 2 frames
Codec ID : V_MPEG4/ISO/AVC
Duration : 2 h 21 min
Bit rate mode : Variable
Bit rate : 33.0 Mb/s
Width : 1 920 pixels
Height : 1 080 pixels
Display aspect ratio : 16:9
Frame rate mode : Constant
Frame rate : 23.976 (24000/1001) FPS
Color space : YUV
Chroma subsampling : 4:2:0
Bit depth : 8 bits
Scan type : Progressive
Bits/(Pixel*Frame) : 0.663
Stream size : 32.5 GiB (88%)
Title : Peligro Inminente (1994)[BDRemux 1080p]
Language : Spanish
Default : Yes
Forced : No

Audio #1
ID : 2
Format : MLP FBA
Format/Info : Meridian Lossless Packing FBA
Commercial name : Dolby TrueHD
Codec ID : A_TRUEHD
Duration : 2 h 21 min
Bit rate mode : Variable
Bit rate : 3 567 kb/s
Maximum bit rate : 5 148 kb/s
Channel(s) : 6 channels
Channel layout : L R C LFE Ls Rs
Sampling rate : 48.0 kHz
Frame rate : 1 200.000 FPS (40 SPF)
Compression mode : Lossless
Stream size : 3.52 GiB (10%)
Title : English True-HD
Language : English
Default : No
Forced : No

Audio #2
ID : 3
Format : AC-3
Format/Info : Audio Coding 3
Commercial name : Dolby Digital
Codec ID : A_AC3
Duration : 2 h 21 min
Bit rate mode : Constant
Bit rate : 640 kb/s
Channel(s) : 6 channels
Channel layout : L R C LFE Ls Rs
Sampling rate : 48.0 kHz
Frame rate : 31.250 FPS (1536 SPF)
Compression mode : Lossy
Stream size : 647 MiB (2%)
Title : Castellano 5.1
Language : Spanish
Service kind : Complete Main
Default : Yes
Forced : Yes

Text #1
ID : 4
Format : UTF-8
Codec ID : S_TEXT/UTF8
Codec ID/Info : UTF-8 Plain Text
Duration : 16 s 169 ms
Bit rate : 21 b/s
Count of elements : 1
Stream size : 44.0 Bytes (0%)
Title : Forced
Language : Spanish
Default : Yes
Forced : Yes

Text #2
ID : 5
Format : PGS
Muxing mode : zlib
Codec ID : S_HDMV/PGS
Codec ID/Info : Picture based subtitle format used on BDs/HD-DVDs
Duration : 2 h 14 min
Bit rate : 34.3 kb/s
Count of elements : 3346
Stream size : 33.1 MiB (0%)
Language : English
Default : No
Forced : No

Text #3
ID : 6
Format : PGS
Muxing mode : zlib
Codec ID : S_HDMV/PGS
Codec ID/Info : Picture based subtitle format used on BDs/HD-DVDs
Duration : 2 h 20 min
Bit rate : 26.6 kb/s
Count of elements : 2158
Stream size : 26.8 MiB (0%)
Language : Spanish
Default : No
Forced : No

Text #4
ID : 7
Format : PGS
Muxing mode : zlib
Codec ID : S_HDMV/PGS
Codec ID/Info : Picture based subtitle format used on BDs/HD-DVDs
Duration : 2 h 14 min
Bit rate : 32.3 kb/s
Count of elements : 3138
Stream size : 31.1 MiB (0%)
Language : English
Default : No
Forced : No



Idiomas: Castellano, Inglés.
Subtitulos: Castellano, Inglés.
Vídeo: BDREMUX 1080p mkv.
Audio 1: Castellano Dolby Digital 5.1 - 640 kb/s.
Audio 2: Inglés Dolby True-HD 5.1 s24
Montaje: Yushiro


INFORMACION DE LA DESCARGA
Formato: BDREMUX 1080p mkv
Tamaño del Archivo: 36,7 Gb
Tamaño de la descarga: 44,0 Gb
Película: Cortada con WinRar en 35 partes de 1,07 Gb +
1 parte de 1,04 Mb + registro de recuperación al 5% + 5 archivos de recuperación rev.

Archivo: Para bajar con Jdownloader2, MiPony o equivalente
Enlaces Alojados en: Uploaded, Uptobox, 1fichier, Easybytez